<?xml version="1.0" standalone="no"?>
<!DOCTYPE svg PUBLIC "-//W3C//DTD SVG 1.1//EN" "http://www.w3.org/Graphics/SVG/1.1/DTD/svg11.dtd">
<svg xmlns="http://www.w3.org/2000/svg">
<defs >
<font id="UbuntuMono" horiz-adv-x="500" ><font-face
    font-family="Ubuntu Mono"
    units-per-em="1000"
    panose-1="2 11 8 9 3 6 2 10 2 4"
    ascent="830"
    descent="-170"
    alphabetic="0" />
<glyph unicode=" " glyph-name="space" />
<glyph unicode="!" glyph-name="exclam" d="M405 452Q396 416 388 387T371 332T352 281T330 225H228Q231 259 234 288T242 346T251 401T265 459L303 619H445L405 452ZM255 155Q287 155 308 137T329 81Q329 61 322 44T302 15T273 -5T239 -12Q208 -12 187 7T165
63Q165 84 172 101T192 130T221 148T255 155Z" />
<glyph unicode="&quot;" glyph-name="quotedbl" d="M358 679L343 616Q338 593 329 566T309 509T286 452T263 398H193Q194 423 195 453T200 515T207 577T218 632L228 679H358ZM555 679L541 616Q536 593 527 566T507 509T484 452T460 398H390Q391 423 393 453T398
515T405 577T415 632L426 679H555Z" />
<glyph unicode="#" glyph-name="numbersign" d="M220 467L281 619H381L320 467H403L464 619H564L502 467H567L543 367H463L417 253H515L491 153H377L315 0H215L277 153H193L132 0H32L93 153H33L57 253H134L180 367H85L109 467H220ZM234 253H317L363 367H280L234 253Z" />
<glyph unicode="$" glyph-name="dollar" d="M236 108Q256 108 276 110T313 120T340 142T350 179Q350 195 344 206T326 227T301 245T270 261Q232 279 207 298T167 337T145 381T138 432Q138 462 149 490T182 540T239 579T322 600L346 693H449L425 598Q460 590 489
579T536 557L487 469Q462 486 429 495T364 504Q323 504 293 488T263 438Q263 413 280 395T342 355Q367 342 391 327T433 293T463 248T474 188Q474 106 422 62T285 10L260 -97H156L182 11Q135 18 100 32T47 58L97 150Q119 136 156 122T236 108Z" />
<glyph unicode="%" glyph-name="percent" d="M94 0H4L522 619H611L94 0ZM193 399Q208 399 218 413T236 447T247 487T251 520Q251 542 243 549T227 556Q212 556 202 542T184 508T173 468T169 436Q169 413 176 406T193 399ZM179 322Q141 322 117 349T92 422Q92 453
100 490T125 558T171 611T241 633Q279 633 303 606T328 533Q328 502 320 466T295 397T249 344T179 322ZM422 220Q407 220 397 206T379 172T368 132T364 99Q364 77 372 70T388 63Q403 63 414 77T432 110T443 150T447 183Q447 206 439 213T422 220ZM437 296Q475 296
499 269T523 196Q523 165 515 129T490 61T444 8T374 -14Q336 -14 312 13T288 86Q288 117 296 153T321 221T367 274T437 296Z" />
<glyph unicode="&amp;" glyph-name="ampersand" d="M384 216Q400 240 411 270T433 332L525 321Q510 257 485 213T436 136Q449 109 462 76T486 0H373Q368 20 365 31T356 57Q318 21 276 6T188 -9Q151 -9 124 2T80 31T54 75T45 129Q45 162 53 188T78 238T120 282T177
327L188 335Q175 359 168 384T160 436Q160 481 174 517T214 579T275 619T352 633Q417 633 449 602T481 514Q481 492 475 469T451 420T403 368T326 313L321 310L384 216ZM154 147Q154 121 170 102T217 83Q243 83 270 97T317 132Q303 157 279 193T230 266Q205 252
190 237T167 205T157 174T154 147ZM285 380Q341 408 361 441T382 500Q382 517 373 529T340 542Q307 542 284 517T261 447Q261 424 265 408T277 376L285 380Z" />
<glyph unicode="&apos;" glyph-name="quotesingle" d="M453 679L434 601Q422 551 399 492T352 380H280Q281 406 283 437T288 499T295 561T306 617L321 679H453Z" />
<glyph unicode="(" glyph-name="parenleft" d="M536 623Q469 581 417 527T328 412T272 288T252 166Q252 90 275 28T357 -97L283 -170Q251 -143 224 -107T178 -28T147 61T136 157Q136 248 163 330T238 483T351 611T491 710L536 623Z" />
<glyph unicode=")" glyph-name="parenright" d="M43 -83Q110 -41 162 13T251 128T307 252T327 374Q327 450 304 512T222 637L296 710Q328 683 355 647T401 568T432 479T443 383Q443 291 416 209T341 57T228 -71T88 -170L43 -83Z" />
<glyph unicode="*" glyph-name="asterisk" d="M329 374Q326 362 320 345T308 311T294 279T279 254L260 229L166 296L185 321Q192 331 204 343T230 367T258 389T282 407Q269 407 252 407T216 408T181 413T153 420L123 430L160 539L189 530Q201 526 216 518T246
499T275 479T300 461Q295 473 290 489T281 524T274 559T271 588V619H387V588Q387 576 384 559T377 524T367 490T357 461Q367 468 381 478T412 497T443 515T470 527L499 537L535 426L505 417Q493 413 476 411T441 408T406 406T375 406Q386 399 400 389T428 367T454
343T473 321L492 296L398 228L380 253Q373 263 366 278T351 310T338 344T329 374Z" />
<glyph unicode="+" glyph-name="plus" d="M92 313H249L290 487H396L355 313H512L487 212H330L289 38H183L224 212H67L92 313Z" />
<glyph unicode="," glyph-name="comma" d="M96 -72Q117 -71 138 -67T177 -54T209 -34T228 -8Q198 -4 181 15T163 67Q163 110 191 138T261 167Q300 167 319 144T339 88Q339 44 325 3T282 -71T209 -125T104 -151L96 -72Z" />
<glyph unicode="-" glyph-name="hyphen" d="M168 317H442L412 196H139L168 317Z" />
<glyph unicode="." glyph-name="period" d="M259 167Q294 167 316 147T339 88Q339 66 331 48T310 16T279 -4T243 -12Q208 -12 186 8T163 68Q163 90 171 108T192 139T223 159T259 167Z" />
<glyph unicode="/" glyph-name="slash" d="M118 -165H-11L451 699H580L118 -165Z" />
<glyph unicode="0" glyph-name="zero" d="M366 633Q446 633 491 581T536 441Q536 402 530 353T510 254T474 155T419 70T342 10T242 -13Q202 -13 171 0T117 39T83 100T71 179Q71 218 77 267T97 366T133 465T188 550T265 610T366 633ZM253 90Q281 90 304 106T347
150T380 213T403 287T417 364T422 434Q422 475 408 502T355 530Q327 530 303 514T260 470T227 406T204 332T190 256T185 186Q185 145 200 118T253 90ZM296 254Q271 254 260 267T249 299Q249 321 256 337T273 365T295 381T317 387Q342 387 352 374T363 341Q363 319
356 303T339 276T318 260T296 254Z" />
<glyph unicode="1" glyph-name="one" d="M218 102L304 460Q270 437 231 418T166 390L137 490Q164 499 194 513T256 544T316 580T368 619H465L341 102H464L440 0H64L88 102H218Z" />
<glyph unicode="2" glyph-name="two" d="M365 633Q405 633 436 622T488 590T520 544T531 488Q531 444 514 408T470 342T406 284T332 230Q274 190 241 161T190 102H466L442 0H41Q47 53 64 94T109 170T171 233T248 293Q291 324 321 347T371 390T399 428T408 466Q408
493 392 509T340 526Q304 526 265 511T187 466L147 555Q199 596 255 614T365 633Z" />
<glyph unicode="3" glyph-name="three" d="M388 326Q434 305 456 270T478 192Q478 155 464 119T418 53T335 5T209 -13Q160 -13 116 -3T30 30L72 126Q100 109 138 98T216 87Q244 87 269 92T313 111T343 145T355 197Q355 238 324 257T236 276H195L220 373H271Q291
373 313 377T355 393T387 423T400 470Q400 500 378 516T320 532Q294 532 262 523T198 495L167 585Q209 607 255 620T342 633Q379 633 411 625T468 599T507 557T521 496Q521 441 489 397T388 326Z" />
<glyph unicode="4" glyph-name="four" d="M396 484Q340 432 281 369T173 244H338L396 484ZM544 619L454 244H520L496 146H430L395 0H279L313 146H40L62 238Q90 277 132 326T223 426T324 528T424 619H544Z" />
<glyph unicode="5" glyph-name="five" d="M78 128Q110 108 145 99T213 89Q355 89 355 197Q355 242 303 268T129 297Q158 382 184 462T230 619H555L531 517H305Q295 480 284 445T264 387Q319 382 359 367T425 327T464 272T477 207Q477 107 411 47T216 -13Q168 -13
121 -3T32 29L78 128Z" />
<glyph unicode="6" glyph-name="six" d="M542 524Q490 524 441 517T350 492T275 441T220 356Q252 375 286 382T346 390Q379 390 407 380T457 349T491 298T504 226Q504 168 485 124T434 49T360 3T270 -13Q229 -13 193 1T131 42T90 110T75 204Q75 283 101 358T183
493T324 587T527 623Q532 623 541 623T556 622L542 524ZM387 217Q387 241 380 256T361 281T334 294T300 298Q276 298 251 292T203 277Q198 259 195 241T192 202Q192 179 197 158T214 122T241 97T281 88Q329 88 358 122T387 217Z" />
<glyph unicode="7" glyph-name="seven" d="M118 0Q136 67 169 139T244 279T330 408T419 514H138L163 619H594L572 529Q537 500 491 446T397 320T309 167T244 0H118Z" />
<glyph unicode="8" glyph-name="eight" d="M62 138Q62 167 70 191T95 238T139 282T204 328Q181 352 165 379T149 443Q149 478 162 512T202 573T270 616T367 633Q404 633 435 623T490 594T526 549T540 489Q540 469 535 448T516 404T476 358T407 314Q440 291 463
260T487 180Q487 140 472 105T426 44T352 2T249 -13Q217 -13 184 -5T123 20T79 67T62 138ZM368 177Q368 215 342 237T278 280Q247 265 228 250T198 218T183 186T179 154Q179 119 203 102T263 84Q284 84 303 90T336 109T359 138T368 177ZM262 451Q262 419 282 398T330
360Q387 387 406 415T425 470Q425 502 406 518T351 535Q309 535 286 511T262 451Z" />
<glyph unicode="9" glyph-name="nine" d="M310 325Q333 325 358 331T407 346Q412 365 414 382T417 419Q417 465 396 497T329 530Q281 530 252 499T222 405Q222 359 248 342T310 325ZM263 234Q230 234 202 244T152 274T118 325T105 396Q105 454 124 498T175 573T249
618T339 633Q380 633 416 619T478 578T520 510T535 416Q535 336 509 261T427 127T287 32T85 -4Q80 -4 71 -4T55 -2L70 95Q122 95 170 102T261 128T336 180T391 268Q359 249 324 242T263 234Z" />
<glyph unicode=":" glyph-name="colon" d="M259 167Q294 167 316 147T339 88Q339 66 331 48T310 16T279 -4T243 -12Q208 -12 186 8T163 68Q163 90 171 108T192 139T223 159T259 167ZM331 470Q366 470 388 450T411 391Q411 369 403 351T382 319T351 299T315 291Q280
291 258 311T235 371Q235 393 243 411T264 442T295 462T331 470Z" />
<glyph unicode=";" glyph-name="semicolon" d="M96 -72Q117 -71 138 -67T177 -54T209 -34T228 -8Q198 -4 181 15T163 67Q163 110 191 138T261 167Q300 167 319 144T339 88Q339 44 325 3T282 -71T209 -125T104 -151L96 -72ZM331 470Q366 470 388 450T411 391Q411
369 403 351T382 319T351 299T315 291Q280 291 258 311T235 371Q235 393 243 411T264 442T295 462T331 470Z" />
<glyph unicode="&lt;" glyph-name="less" d="M102 312L525 474L534 364L224 256L479 139L428 44L78 213L102 312Z" />
<glyph unicode="=" glyph-name="equal" d="M465 114H45L69 216H489L465 114ZM511 309H91L116 411H535L511 309Z" />
<glyph unicode="&gt;" glyph-name="greater" d="M485 206L62 44L53 154L363 262L108 379L159 474L509 305L485 206Z" />
<glyph unicode="?" glyph-name="question" d="M335 530Q302 530 274 520T207 492L192 587Q233 609 277 621T369 633Q413 633 443 623T493 596T522 555T531 505Q531 475 522 452T498 408T461 371T415 336Q392 319 376 307T349 283T329 258T315 225H201Q208 271
232 306T313 381Q337 399 353 411T379 435T393 457T398 484Q398 530 335 530ZM244 155Q276 155 297 137T318 81Q318 61 311 44T291 15T262 -5T228 -12Q197 -12 176 7T154 63Q154 84 161 101T181 130T210 148T244 155Z" />
<glyph unicode="@" glyph-name="at" d="M313 -48Q356 -48 381 -43T415 -35L408 -121Q382 -127 355 -131T299 -135Q181 -135 118 -66T55 147Q55 252 79 341T148 495T252 596T386 633Q476 633 518 594T560 480Q560 461 557 438T548 392L467 55Q439 46 409 41T353
35Q321 35 295 43T249 71T220 120T209 193Q209 239 221 284T257 364T318 421T403 443Q420 443 433 440T454 435Q457 446 459 458T461 479Q461 510 440 528T381 547Q334 547 292 521T217 444T167 321T148 159Q148 48 192 0T313 -48ZM363 130Q366 130 371 130T381
132L431 341Q423 347 406 347Q380 347 362 334T332 298T315 249T309 194Q309 162 323 146T363 130Z" />
<glyph unicode="A" glyph-name="A" d="M356 144H180Q165 110 149 74T119 0H-6Q79 186 158 341T312 619H443Q457 501 465 370T476 89V0H352L356 144ZM352 502Q339 477 327 453T300 400T267 332T226 243H358Q359 294 359 332T357 399T355 453T352 502Z" />
<glyph unicode="B" glyph-name="B" d="M207 -8Q192 -8 172 -7T128 -4T82 3T39 13L182 607Q202 612 224 615T268 621T310 625T345 626Q388 626 423 618T483 592T522 547T536 480Q536 435 512 394T423 327Q465 307 484 278T503 204Q503 156 484 117T428 51T335 8T207
-8ZM221 272L180 101Q191 99 208 98T251 97Q269 97 292 102T335 119T369 152T383 205Q383 245 356 258T286 272H221ZM246 371H284Q309 371 333 375T376 391T407 420T419 464Q419 496 397 509T336 522Q320 522 306 522T280 519L246 371Z" />
<glyph unicode="C" glyph-name="C" d="M288 -13Q237 -13 199 2T137 46T100 115T88 205Q88 280 108 356T170 494T273 594T420 633Q452 633 477 627T521 614T552 598T569 585L523 490Q503 505 476 515T407 526Q358 526 322 497T261 423T224 324T212 217Q212 190
217 168T235 130T268 104T319 95Q365 95 396 106T447 129L461 30Q435 14 390 1T288 -13Z" />
<glyph unicode="D" glyph-name="D" d="M177 100Q182 99 188 99T199 99Q256 99 295 128T359 203T394 303T405 405Q405 429 401 450T387 486T359 510T313 519Q295 519 277 516L177 100ZM529 409Q529 329 510 254T449 120T341 27T180 -8Q148 -8 107 -5T31 7L177 611Q221
620 251 623T314 626Q414 626 471 570T529 409Z" />
<glyph unicode="E" glyph-name="E" d="M53 0L201 619H568L544 517H300L266 378H478L454 276H242L200 102H466L442 0H53Z" />
<glyph unicode="F" glyph-name="F" d="M57 0L205 619H585L561 517H305L268 367H492L468 265H244L180 0H57Z" />
<glyph unicode="G" glyph-name="G" d="M263 -13Q170 -13 124 44T78 205Q78 280 99 356T163 494T270 594T420 633Q452 633 477 627T521 614T552 598T569 585L523 490Q503 505 476 515T407 526Q356 526 318 497T253 423T214 324T201 217Q201 163 221 129T289 94Q302
94 314 95T338 98L392 324H515L441 15Q418 7 370 -3T263 -13Z" />
<glyph unicode="H" glyph-name="H" d="M586 619L437 0H313L380 273H215L149 0H26L175 619H298L239 375H404L463 619H586Z" />
<glyph unicode="I" glyph-name="I" d="M35 0L59 102H195L295 517H159L183 619H576L552 517H418L318 102H452L428 0H35Z" />
<glyph unicode="J" glyph-name="J" d="M459 207Q448 160 431 120T386 50T316 4T212 -13Q180 -13 153 -7T104 10T65 32T37 55L100 144Q120 126 147 110T210 94Q258 94 289 119T338 214L410 517H210L234 619H557L459 207Z" />
<glyph unicode="K" glyph-name="K" d="M338 322Q362 292 384 255T424 175T457 88T481 0H352Q345 35 332 75T301 155T263 228T223 287L154 0H31L179 619H303L241 362Q272 390 303 423T364 491T418 559T462 619H603Q580 588 551 551T488 475T416 396T338 322Z" />
<glyph unicode="L" glyph-name="L" d="M429 0H45L193 619H316L192 102H453L429 0Z" />
<glyph unicode="M" glyph-name="M" d="M291 619Q293 598 296 564T303 490T308 408T313 330L463 619H576Q556 468 526 315T460 0H347L471 486L333 219H246Q244 285 240 353T230 481L119 0H6Q27 76 49 158T95 321T140 479T185 619H291Z" />
<glyph unicode="N" glyph-name="N" d="M337 0Q320 103 297 211T241 444L135 0H26L174 619H279Q293 575 308 523T337 418T362 313T381 218L476 619H585L437 0H337Z" />
<glyph unicode="O" glyph-name="O" d="M367 633Q448 633 494 581T540 441Q540 402 534 353T514 254T477 155T421 70T344 10T241 -13Q159 -13 113 39T67 179Q67 218 73 267T93 366T130 465T186 550T264 610T367 633ZM255 94Q296 94 326 129T377 215T407 325T417
432Q417 471 404 498T353 526Q312 526 281 491T230 405T200 294T190 188Q190 149 203 122T255 94Z" />
<glyph unicode="P" glyph-name="P" d="M347 626Q402 626 441 614T506 578T543 524T555 455Q555 392 532 346T466 269T366 225T238 210H212L161 0H38L185 611Q232 619 273 622T347 626ZM331 519Q317 519 308 519T285 516L237 316H267Q348 316 389 348T431 437Q431
475 410 497T331 519Z" />
<glyph unicode="Q" glyph-name="Q" d="M367 633Q448 633 493 581T539 441Q539 404 534 358T516 264T484 170T434 85T366 22T275 -11V-18Q275 -47 315 -64T416 -88L378 -170Q278 -156 228 -122T177 -21Q177 -17 177 -13T178 -4Q125 15 97 62T68 179Q68 218 74 267T94
366T131 465T187 550T264 610T367 633ZM255 94Q296 94 326 129T377 215T407 325T417 432Q417 471 404 498T353 526Q312 526 281 491T230 405T200 294T190 188Q190 149 203 122T255 94Z" />
<glyph unicode="R" glyph-name="R" d="M381 253Q396 228 409 197T435 133T456 65T472 0H352Q341 60 321 116T274 228H210L155 0H34L179 609Q198 613 219 616T262 622T302 625T336 626Q435 626 484 583T533 465Q533 430 524 397T495 335T447 285T381 253ZM280 330Q306
330 329 337T371 359T399 397T410 451Q410 486 389 505T317 524Q306 524 297 523T280 520L234 330H280Z" />
<glyph unicode="S" glyph-name="S" d="M236 90Q259 90 280 94T316 109T341 136T351 176Q351 194 344 208T323 235T293 257T255 277Q230 290 209 303T172 334T147 377T138 438Q138 526 197 579T367 633Q403 633 431 628T482 616T519 601T545 587L493 492Q470 508
435 519T351 530Q313 530 287 513T260 454Q260 420 282 403T337 371Q367 357 392 342T435 307T463 260T474 196Q474 94 409 41T223 -13Q183 -13 152 -7T97 7T58 24T31 41L84 135Q94 129 109 121T144 106T187 95T236 90Z" />
<glyph unicode="T" glyph-name="T" d="M603 619L579 517H415L291 0H168L292 517H129L153 619H603Z" />
<glyph unicode="U" glyph-name="U" d="M237 -13Q149 -13 108 29T67 146Q67 187 79 238L171 619H294L203 239Q198 216 194 196T190 158Q190 128 204 111T255 94Q277 94 293 100T321 122T342 164T361 229L455 619H578L482 220Q469 165 453 122T409 49T341 3T237 -13Z" />
<glyph unicode="V" glyph-name="V" d="M170 0Q162 58 156 127T146 270T139 419T136 563Q136 579 136 593T137 619H263Q261 572 260 512T259 386Q259 316 260 249T265 125Q292 177 323 243T385 376T443 507T489 619H617Q591 559 557 485T482 330T395 164T301 0H170Z" />
<glyph unicode="W" glyph-name="W" d="M324 0Q322 21 319 55T312 129T306 210T302 288L153 0H39Q59 151 89 304T155 619H268L145 133L282 400H369Q371 334 376 266T386 138L497 619H609Q588 543 566 461T521 298T475 140T430 0H324Z" />
<glyph unicode="X" glyph-name="X" d="M344 430Q377 473 412 521T480 619H610Q556 542 500 471T387 330Q403 287 418 240T444 149T464 66T475 0H353Q346 51 334 111T304 228L143 0H2L260 338L150 619H276L344 430Z" />
<glyph unicode="Y" glyph-name="Y" d="M311 340Q327 363 350 397T397 470T444 548T486 619H618Q587 568 557 520T494 425T427 332T351 236L294 0H171L227 235Q196 332 176 424T142 619H263Q269 547 282 475T311 340Z" />
<glyph unicode="Z" glyph-name="Z" d="M547 519Q489 454 440 398T348 292T266 194T190 101H459L434 0H28L48 81Q79 123 114 169T193 267T290 382T410 518H160L185 619H571L547 519Z" />
<glyph unicode="[" glyph-name="bracketleft" d="M297 699H575L552 603H392L230 -69H390L367 -165H89L297 699Z" />
<glyph unicode="\" glyph-name="backslash" d="M206 699H323L404 -165H285L206 699Z" />
<glyph unicode="]" glyph-name="bracketright" d="M293 -165H15L38 -69H198L360 603H200L223 699H501L293 -165Z" />
<glyph unicode="^" glyph-name="asciicircum" d="M537 306L425 258L352 484L170 262L77 318L328 619H432L537 306Z" />
<glyph unicode="_" glyph-name="underscore" d="M-8 -58H439L413 -165H-34L-8 -58Z" />
<glyph unicode="`" glyph-name="grave" d="M299 691L457 573L412 506L238 597L299 691Z" />
<glyph unicode="a" glyph-name="a" d="M251 94Q279 94 298 106T331 136Q333 150 335 163T341 193L384 371Q373 374 361 375T338 376Q303 376 275 360T227 316T197 254T186 182Q186 156 190 139T203 112T224 98T251 94ZM206 -11Q140 -10 102 36T64 172Q64 240 87
297T150 394T243 457T357 480Q398 480 440 472T525 447L463 192Q459 174 457 157T455 121Q455 92 460 65T475 10L367 -8Q365 -4 362 2T356 15T351 27T348 36Q328 21 294 5T206 -11Z" />
<glyph unicode="b" glyph-name="b" d="M502 295Q502 227 481 170T422 73T331 10T214 -13Q174 -13 126 -5T40 17L198 673L326 694L269 456Q290 467 313 473T359 479Q425 479 463 435T502 295ZM182 97Q193 95 205 94T228 93Q265 93 293 109T340 151T370 212T380
285Q380 337 363 356T316 376Q300 376 280 370T245 353L182 97Z" />
<glyph unicode="c" glyph-name="c" d="M77 182Q77 247 100 302T164 396T263 458T389 481Q416 481 436 479T474 474T504 466T531 455L487 357Q471 364 446 369T389 375Q348 375 314 363T255 326T215 267T201 187Q201 167 206 151T224 122T261 103T321 96Q360 96
393 103T444 119L456 21Q444 15 430 9T397 -1T353 -8T292 -11Q231 -11 190 4T124 46T88 107T77 182Z" />
<glyph unicode="d" glyph-name="d" d="M251 94Q279 94 298 106T331 136Q333 150 335 163T341 193L384 371Q373 374 361 375T338 376Q303 376 275 360T227 316T197 254T186 182Q186 156 190 139T203 112T224 98T251 94ZM463 192Q459 174 457 157T455 121Q455 92
460 65T475 10L367 -8Q365 -4 362 2T356 15T351 27T348 36Q328 21 294 5T206 -11Q140 -10 102 36T64 172Q64 240 87 296T149 393T242 455T356 477Q383 477 408 470L456 673L584 694L463 192Z" />
<glyph unicode="e" glyph-name="e" d="M196 167Q196 149 202 135T221 110T257 95T314 89Q354 89 390 97T443 114L451 21Q427 9 384 -1T290 -12Q233 -12 192 2T125 43T87 104T75 183Q75 241 94 295T151 391T242 457T365 482Q434 482 478 448T522 353Q522 302 497
267T428 209T325 177T196 167ZM342 384Q296 384 255 353T197 252Q260 252 300 260T364 280T396 308T405 336Q405 359 389 371T342 384Z" />
<glyph unicode="f" glyph-name="f" d="M278 26Q259 -68 206 -118T65 -168Q35 -168 10 -163T-35 -148L-1 -44Q12 -49 27 -52T63 -56Q85 -56 101 -49T127 -31T144 -4T154 30L222 368H121L146 470H243L248 497Q260 554 281 591T332 651T398 683T474 693Q506 693 535
688T591 671L548 571Q528 580 511 584T472 588Q454 588 439 586T410 574T387 546T371 497L366 470H536L511 368H346L278 26Z" />
<glyph unicode="g" glyph-name="g" d="M438 55Q424 -3 403 -45T350 -114T272 -155T166 -168Q113 -168 76 -159T1 -129L44 -32Q70 -43 102 -53T178 -63Q238 -63 268 -38T309 30L315 56Q293 45 270 39T226 32Q146 32 111 77T76 196Q76 264 100 317T166 406T259 461T368
480Q410 480 452 474T533 451L438 55ZM392 374Q368 380 346 380Q312 380 285 366T238 327T207 271T196 205Q196 175 209 153T262 131Q276 131 297 136T339 155L392 374Z" />
<glyph unicode="h" glyph-name="h" d="M279 468Q296 473 314 476T349 480Q423 480 460 445T497 344Q497 327 495 307T487 265L423 0H300L360 249Q363 265 367 282T371 316Q371 339 359 356T313 374Q300 374 285 372T255 363L167 0H44L205 673L333 694L279 468Z" />
<glyph unicode="i" glyph-name="i" d="M459 13Q422 -1 390 -6T329 -11Q258 -11 224 23T190 121Q190 154 201 198L241 368H111L136 470H389L321 183Q315 162 315 146Q315 96 366 96Q383 96 406 99T457 113L459 13ZM332 527Q300 527 281 544T261 597Q261 616 268
632T286 660T313 677T344 684Q373 684 394 667T416 612Q416 594 409 578T389 551T362 534T332 527Z" />
<glyph unicode="j" glyph-name="j" d="M367 25Q353 -32 334 -70T288 -130T229 -161T155 -170Q104 -170 62 -158T-6 -125L42 -26Q64 -40 89 -51T146 -62Q184 -62 208 -44T244 25L326 368H136L161 470H474L367 25ZM396 527Q364 527 344 544T324 597Q324 616 331
632T349 660T376 677T407 684Q437 684 458 667T480 612Q480 594 473 578T453 551T426 534T396 527Z" />
<glyph unicode="k" glyph-name="k" d="M567 470Q519 412 459 356T345 254Q363 232 381 201T418 134T451 64T476 0H343Q335 25 322 57T294 121T263 181T232 227L178 0H54L216 673L344 694L247 290Q265 305 289 327T338 373T386 423T427 470H567Z" />
<glyph unicode="l" glyph-name="l" d="M455 20Q451 18 440 13T409 2T365 -7T308 -11Q240 -11 206 24T172 122Q172 139 174 157T182 196L275 586H145L169 688H422L304 188Q302 178 300 167T297 146Q297 126 308 111T353 96Q367 96 381 98T409 105T432 112T447 117L455 20Z" />
<glyph unicode="m" glyph-name="m" d="M129 449Q166 462 196 468T256 475Q282 475 304 467T341 440Q364 458 390 466T438 475Q478 475 503 451T529 374Q529 362 528 349T522 321L446 0H346L424 330Q426 337 427 344T428 356Q428 386 401 386Q391 386 382 381T365
369Q365 346 359 321L325 179H228L263 328Q265 334 267 342T269 358Q269 368 264 376T244 385Q227 385 212 380L121 0H21L129 449Z" />
<glyph unicode="n" glyph-name="n" d="M152 450Q183 460 233 470T340 480Q424 480 460 444T497 344Q497 327 495 307T487 265L422 0H299L360 249Q363 265 367 282T371 316Q371 339 359 356T313 374Q299 374 284 372T255 363L167 0H44L152 450Z" />
<glyph unicode="o" glyph-name="o" d="M256 94Q286 94 309 112T348 157T373 215T382 275Q382 322 369 349T313 376Q284 376 261 358T221 313T197 255T188 195Q188 148 201 121T256 94ZM231 -13Q147 -13 106 35T65 163Q65 223 83 280T136 382T223 454T343 482Q416
482 460 438T505 305Q505 246 488 189T437 87T351 15T231 -13Z" />
<glyph unicode="p" glyph-name="p" d="M327 480Q420 480 463 433T506 310Q506 248 488 190T434 88T341 17T210 -10Q190 -10 179 -9T160 -6L121 -165H-2L146 448Q167 457 191 463T239 473T286 478T327 480ZM185 98Q190 96 196 96T209 96Q250 96 283 112T338 157T373
222T385 301Q385 316 382 330T371 355T348 372T309 379Q289 379 276 377T251 372L185 98Z" />
<glyph unicode="q" glyph-name="q" d="M72 172Q72 241 95 297T158 394T251 457T365 480Q406 480 448 472T533 447L386 -165H263L305 13Q261 -9 214 -9Q149 -9 111 37T72 172ZM392 371Q381 374 369 375T346 376Q311 376 283 360T235 316T205 254T194 182Q194 156
198 139T211 112T232 98T259 94Q275 94 295 100T330 118L392 371Z" />
<glyph unicode="r" glyph-name="r" d="M488 348Q469 355 443 359T379 363Q353 363 326 360T275 348L192 0H69L174 439Q221 458 275 468T378 479Q434 479 469 474T535 461L488 348Z" />
<glyph unicode="s" glyph-name="s" d="M234 91Q287 91 307 105T327 138Q327 147 324 154T312 167T288 180T250 196Q222 206 201 217T166 242T145 276T138 321Q138 394 189 438T344 482Q395 482 437 473T505 452L460 355Q437 366 408 373T333 380Q323 380 311 379T287
372T269 359T261 337Q261 328 263 322T274 309T297 295T337 279Q367 267 388 255T424 228T445 193T452 145Q452 116 440 88T403 38T336 1T238 -13Q197 -13 166 -8T112 4T74 18T49 31L95 128Q115 117 150 104T234 91Z" />
<glyph unicode="t" glyph-name="t" d="M204 368H110L135 470H228L256 588L385 608L351 470H530L505 368H327L283 185Q278 160 278 146Q278 116 298 106T345 96Q372 96 400 102T456 120L455 17Q424 3 387 -4T312 -11Q232 -11 193 23T153 124Q153 140 155 156T162
192L204 368Z" />
<glyph unicode="u" glyph-name="u" d="M221 -11Q140 -11 108 27T76 131Q76 177 90 238L146 470H269L216 246Q208 216 204 192T200 148Q200 96 250 96Q278 96 294 107T326 136Q328 150 329 163T336 193L402 470H525L458 192Q454 174 452 157T449 121Q449 92 455
65T470 10L362 -8Q360 -4 357 2T351 15T346 27T343 36Q323 21 291 5T221 -11Z" />
<glyph unicode="v" glyph-name="v" d="M174 0Q151 91 133 209T106 470H234Q235 434 237 391T242 305T250 218T260 139Q281 169 305 210T351 297T393 388T423 470H555Q531 406 498 339T429 209T355 92T285 0H174Z" />
<glyph unicode="w" glyph-name="w" d="M307 0Q302 53 299 107T291 232Q273 195 258 166T228 110T196 58T159 0H64Q64 44 66 97T72 211T84 337T102 470H209Q192 383 177 300T151 123Q174 163 192 197T225 261T253 318T279 375H360Q362 319 364 261T371 123Q387
171 400 214T425 299T448 383T470 470H578Q534 333 491 212T399 0H307Z" />
<glyph unicode="x" glyph-name="x" d="M238 470L307 320Q337 356 366 394T420 470H550Q512 416 467 359T363 238Q398 172 423 116T469 0H343Q327 42 310 81T277 152L145 0H10L223 239L109 470H238Z" />
<glyph unicode="y" glyph-name="y" d="M549 470Q523 401 498 342T447 230T391 129T329 33Q304 -3 276 -38T214 -103T140 -150T53 -168Q-9 -168 -43 -147L-4 -49Q12 -56 26 -59T62 -63Q135 -63 183 9Q159 105 140 217T113 470H241Q242 434 244 391T251 304T260
217T273 139Q319 209 354 290T418 470H549Z" />
<glyph unicode="z" glyph-name="z" d="M509 380Q489 363 457 333T385 265T304 185T224 102H449L424 0H49L70 81Q97 113 131 150T203 226T278 301T347 368H144L169 470H530L509 380Z" />
<glyph unicode="{" glyph-name="braceleft" d="M247 267Q281 252 293 226T305 170Q305 156 304 142T298 113L276 14Q274 4 272 -8T269 -30Q269 -47 279 -58T315 -69H405L382 -165H289Q260 -165 236 -159T193 -140T165 -104T154 -49Q154 -23 163 13L188 122Q191
134 193 146T196 170Q196 190 186 204T146 219H99L122 315H171Q202 315 224 336T255 399L290 547Q299 584 311 612T344 660T396 689T472 699H579L555 603H480Q459 603 446 599T423 585T408 560T397 523L367 396Q353 340 327 309T247 267Z" />
<glyph unicode="|" glyph-name="bar" d="M333 699H456L249 -165H125L333 699Z" />
<glyph unicode="}" glyph-name="braceright" d="M335 267Q301 282 289 308T277 364Q277 378 279 392T284 421L306 520Q308 530 310 542T313 564Q313 581 304 592T267 603H177L200 699H293Q322 699 347 693T390 674T418 638T428 583Q428 569 426 554T420 522L394
412Q391 400 389 388T387 364Q387 344 397 330T436 315H483L460 219H412Q381 219 359 198T327 135L292 -13Q283 -50 271 -78T238 -126T186 -155T110 -165H4L27 -69H103Q124 -69 137 -65T159 -51T174 -26T185 11L215 138Q229 194 255 225T335 267Z" />
<glyph unicode="~" glyph-name="asciitilde" d="M530 328Q518 296 502 268T466 218T419 185T361 172Q329 172 307 185T265 212Q250 222 234 231T201 240Q191 240 183 238T168 230T152 210T133 175L50 200Q60 230 75 258T112 308T159 343T218 356Q250 356 272 344T315
317Q329 307 345 298T378 288Q388 288 396 290T411 299T427 319T446 354L530 328Z" />
<glyph unicode="&#xa0;" glyph-name="uni00A0" />
<glyph unicode="&#xa1;" glyph-name="exclamdown" d="M318 303Q286 303 265 321T244 377Q244 397 251 414T271 443T300 463T334 470Q365 470 386 451T408 395Q408 374 401 357T381 328T352 310T318 303ZM167 6Q176 42 184 71T201 126T220 177T242 233H344Q341
198 338 169T330 112T320 57T307 -1L269 -161H127L167 6Z" />
<glyph unicode="&#xa2;" glyph-name="cent" d="M313 -97H189L221 37Q184 45 159 62T118 104T95 156T88 216Q88 272 105 319T155 401T231 460T330 490L361 619H484L453 488Q479 484 499 477T537 463L492 365Q477 372 450 379T391 387Q353 387 320 377T263 348T226
299T212 230Q212 185 240 160T338 134Q377 134 406 142T452 159L464 61Q444 50 413 41T342 29L313 -97Z" />
<glyph unicode="&#xa3;" glyph-name="sterling" d="M310 349H468L444 247H286Q278 215 265 176T238 103H484L460 0H76Q110 75 129 135T163 247H84L108 350H188L211 442Q224 494 248 530T303 589T372 622T447 632Q485 632 520 625T581 600L531 507Q511 518 490
523T447 528Q426 528 408 524T375 507T347 472T326 414L310 349Z" />
<glyph unicode="&#xa4;" glyph-name="currency" d="M305 134Q260 134 221 152L154 88L73 168L138 230Q119 265 119 311Q119 358 138 392L73 455L155 535L222 471Q241 479 260 483T305 488Q348 488 388 471L455 535L536 455L472 392Q490 357 490 312Q490 266 472
230L536 168L454 88L387 152Q368 143 349 139T305 134ZM305 231Q336 231 358 251T380 312Q380 350 358 370T305 391Q273 391 251 371T229 311Q229 272 251 252T305 231Z" />
<glyph unicode="&#xa5;" glyph-name="yen" d="M322 376Q411 483 488 619H621Q596 579 572 544T523 474T470 404T409 328H507L488 250H357L341 179H472L453 101H321L297 0H167L192 101H62L80 179H211L227 250H97L116 328H222Q193 405 168 482T129 619H257Q263 589
269 562T282 507T299 447T322 376Z" />
<glyph unicode="&#xa6;" glyph-name="brokenbar" d="M253 345L338 699H461L376 345H253ZM338 189L254 -165H130L215 189H338Z" />
<glyph unicode="&#xa7;" glyph-name="section" d="M301 490Q301 469 319 457T379 423L396 414Q413 406 429 396T459 373T480 340T488 294Q488 252 460 210T377 137Q394 119 399 100T405 60Q405 31 392 3T353 -48T285 -83T188 -97Q146 -97 105 -88T34 -61L76 29Q104
13 130 7T186 0Q241 0 264 16T288 55Q288 78 270 90T211 124L193 133Q176 141 160 151T130 175T109 209T101 255Q101 299 130 340T210 413Q196 429 190 449T184 490Q184 517 197 543T236 589T301 621T391 633Q430 633 468 625T535 600L493 511Q465 525 439 531T389
537Q344 537 323 524T301 490ZM211 277Q211 258 225 238T271 204L311 185Q341 203 360 226T379 273Q379 296 364 315T310 351L276 366Q247 347 229 326T211 277Z" />
<glyph unicode="&#xa8;" glyph-name="dieresis" d="M268 538Q242 538 225 554T208 597Q208 614 214 628T231 652T254 667T280 673Q305 673 323 657T341 613Q341 596 334 583T317 559T293 544T268 538ZM466 538Q440 538 423 554T406 597Q406 631 429 652T479 673Q504
673 521 657T539 613Q539 596 532 583T515 559T491 544T466 538Z" />
<glyph unicode="&#xa9;" glyph-name="copyright" d="M364 120Q347 112 329 108T294 104Q265 104 244 114T208 142T186 182T179 229Q179 253 186 276T207 317T243 346T295 357Q310 357 327 355T363 344L342 290Q331 295 321 296T300 298Q269 298 256 278T242 233Q242
201 258 183T305 164Q313 164 325 166T347 173L364 120ZM63 231Q63 292 82 338T132 414T203 460T288 475Q332 475 372 460T444 415T495 338T514 231Q514 170 495 125T445 49T373 3T288 -13Q244 -13 204 2T132 48T82 124T63 231ZM288 51Q317 51 345 62T396 97T432
154T446 232Q446 275 433 308T397 365T346 400T288 412Q258 412 230 400T179 365T143 309T129 232Q129 188 142 154T178 97T229 63T288 51Z" />
<glyph unicode="&#xaa;" glyph-name="ordfeminine" d="M398 542Q392 543 386 543T375 544Q351 544 330 536T292 512T266 476T256 427Q256 400 270 381T313 362Q326 362 339 366T366 381Q365 384 365 394Q365 408 368 421T374 449L398 542ZM472 450Q469 435 466
417T462 379T464 336T478 288L394 276L382 304Q335 272 288 272Q257 272 234 284T194 316T170 362T162 417Q162 454 176 492T219 562T293 612T397 632Q423 632 451 629T512 616L472 450Z" />
<glyph unicode="&#xab;" glyph-name="guillemotleft" d="M198 251L256 82L187 46L89 259L263 463L325 418L198 251ZM398 251L456 82L387 46L289 259L463 463L525 418L398 251Z" />
<glyph unicode="&#xac;" glyph-name="logicalnot" d="M439 42H334L387 261H88L113 363H516L439 42Z" />
<glyph unicode="&#xad;" glyph-name="uni00AD" d="M168 317H442L412 196H139L168 317Z" />
<glyph unicode="&#xae;" glyph-name="registered" d="M257 187V110H204V348Q217 352 234 354T271 357Q328 357 355 335T382 271Q382 222 343 200Q354 183 367 160T394 110H337Q324 134 314 152T294 187H257ZM257 237H276Q303 237 316 244T329 274Q329 294 313
300T280 307Q273 307 268 307T257 305V237ZM63 231Q63 292 82 338T132 414T203 460T288 475Q332 475 372 460T444 415T495 338T514 231Q514 170 495 125T445 49T373 3T288 -13Q244 -13 204 2T132 48T82 124T63 231ZM288 51Q317 51 345 62T396 97T432 154T446 232Q446
275 433 308T397 365T346 400T288 412Q258 412 230 400T179 365T143 309T129 232Q129 188 142 154T178 97T229 63T288 51Z" />
<glyph unicode="&#xaf;" glyph-name="overscore" d="M236 647H523L502 560H214L236 647Z" />
<glyph unicode="&#xb0;" glyph-name="degree" d="M348 698Q379 698 405 689T451 661T481 617T492 559Q492 527 481 502T451 458T406 431T348 421Q283 421 244 457T204 559Q204 624 244 661T348 698ZM348 505Q372 505 387 518T403 560Q403 588 388 601T348 614Q326
614 310 601T294 560Q294 532 309 519T348 505Z" />
<glyph unicode="&#xb1;" glyph-name="plusminus" d="M47 102H466L442 0H23L47 102ZM118 402H275L312 558H418L381 402H538L514 300H357L319 143H213L251 300H94L118 402Z" />
<glyph unicode="&#xb2;" glyph-name="twosuperior" d="M454 351L434 270H178Q178 297 183 321T201 366T239 408T300 448Q326 463 341 473T364 491T374 507T377 524Q377 535 368 542T344 550Q327 550 305 540T253 507L220 578Q249 604 285 618T362 633Q384 633
404 628T439 611T463 582T472 540Q472 499 451 468T381 407Q369 399 357 392T333 377T314 363T303 351H454Z" />
<glyph unicode="&#xb3;" glyph-name="threesuperior" d="M204 366Q221 355 246 349T298 342Q327 342 348 352T370 385Q370 400 357 408T313 417H268L286 486H326Q355 486 370 499T386 528Q386 539 376 547T345 555Q322 555 299 548T258 531L239 603Q262 614 297
623T368 633Q389 633 408 629T442 615T465 589T474 547Q474 521 459 497T415 459Q435 449 446 429T458 385Q458 352 444 329T406 290T354 269T293 262Q258 262 225 269T168 291L204 366Z" />
<glyph unicode="&#xb4;" glyph-name="acute" d="M495 597L321 506L276 573L434 691L495 597Z" />
<glyph unicode="&#xb5;" glyph-name="mu" d="M462 199Q451 160 451 134Q451 98 490 91L455 -10Q410 -9 388 3T351 36Q331 19 302 4T236 -11Q210 -11 189 -4T155 14Q154 -12 151 -34T141 -82L121 -165H1L153 470H275L221 245Q215 222 210 198T204 153Q204 128 215
112T256 96Q284 96 302 106T334 126Q331 142 332 159T338 193L405 470H527L462 199Z" />
<glyph unicode="&#xb6;" glyph-name="paragraph" d="M210 232Q151 244 122 280T93 371Q93 432 118 480T186 560T284 609T402 626Q450 626 498 621T582 605L397 -165H296L461 522Q454 523 439 524T407 525Q400 525 394 525T381 524L216 -165H114L210 232Z" />
<glyph unicode="&#xb7;" glyph-name="middot" d="M297 354Q332 354 354 334T377 275Q377 253 369 235T348 203T317 183T281 175Q246 175 224 195T201 255Q201 277 209 295T230 326T261 346T297 354Z" />
<glyph unicode="&#xb8;" glyph-name="cedilla" d="M295 -25Q317 -36 326 -51T335 -84Q335 -125 301 -147T212 -170Q164 -170 126 -150L152 -92Q163 -98 177 -101T206 -105Q229 -105 236 -96T244 -80Q244 -69 239 -62T218 -49L200 -43Q212 -24 222 -11T243 18H325Q317
8 310 -3T295 -25Z" />
<glyph unicode="&#xb9;" glyph-name="onesuperior" d="M176 351H271L309 511Q289 500 269 493T219 474L209 552Q251 567 290 586T361 626H438L372 351H453L433 270H156L176 351Z" />
<glyph unicode="&#xba;" glyph-name="ordmasculine" d="M266 407Q266 374 282 364T318 354Q338 354 356 365T388 395T410 441T419 499Q419 532 403 542T367 553Q347 553 329 542T297 511T275 465T266 407ZM173 400Q173 445 186 487T224 561T288 613T377 633Q447
633 479 599T512 506Q512 462 499 420T461 346T397 293T308 273Q238 273 206 307T173 400Z" />
<glyph unicode="&#xbb;" glyph-name="guillemotright" d="M391 258L333 427L403 463L500 250L327 46L264 91L391 258ZM191 258L133 427L203 463L300 250L127 46L64 91L191 258Z" />
<glyph unicode="&#xbc;" glyph-name="onequarter" d="M499 250L463 99H499L485 39H449L439 0H367L377 39H249L261 88Q279 111 294 130T325 169T359 207T399 250H499ZM113 557Q151 572 179 587T238 626H301L240 376H154L191 526Q169 515 154 509T118 498L113 557ZM413
188Q393 168 374 144T338 99H391L413 188ZM574 619L109 0H13L477 619H574Z" />
<glyph unicode="&#xbd;" glyph-name="onehalf" d="M572 619L107 0H12L476 619H572ZM113 557Q151 572 179 587T238 626H301L240 376H154L191 526Q169 515 154 509T118 498L113 557ZM484 62L469 0H268Q270 47 291 71T353 116Q390 135 406 146T423 171Q423 180 417
184T399 189Q383 189 367 181T334 160L306 212Q326 233 356 246T419 259Q461 259 481 240T501 188Q501 167 495 152T477 126T452 106T422 89Q410 83 396 76T374 62H484Z" />
<glyph unicode="&#xbe;" glyph-name="threequarters" d="M593 619L128 0H32L496 619H593ZM112 445Q122 440 140 435T178 430Q185 430 194 430T211 433T224 441T230 456Q230 478 176 478H156L169 530H192Q200 530 209 531T227 534T240 542T245 555Q245 564 237
568T216 572Q196 572 177 566T146 554L134 608Q151 619 180 626T238 633Q285 633 304 617T324 578Q324 556 314 541T277 510Q299 502 307 490T315 462Q315 436 303 418T273 389T231 372T185 367Q147 367 123 372T85 386L112 445ZM499 250L463 99H499L485 39H449L439
0H367L377 39H249L261 88Q279 111 294 130T325 169T359 207T399 250H499ZM413 188Q393 168 374 144T338 99H391L413 188Z" />
<glyph unicode="&#xbf;" glyph-name="questiondown" d="M341 303Q309 303 288 321T267 377Q267 397 274 414T294 443T323 463T357 470Q388 470 409 451T431 395Q431 374 424 357T404 328T375 310T341 303ZM247 -67Q280 -67 308 -57T375 -29L390 -124Q349 -146
305 -158T213 -170Q169 -170 139 -160T89 -133T60 -92T51 -42Q51 -12 60 11T84 55T121 92T167 127Q190 143 206 155T233 180T253 205T267 238H381Q377 215 370 196T349 157T317 120T269 82Q245 64 229 52T203 28T189 6T184 -21Q184 -67 247 -67Z" />
<glyph unicode="&#xc0;" glyph-name="Agrave" d="M356 144H180Q165 110 149 74T119 0H-6Q79 186 158 341T312 619H443Q457 501 465 370T476 89V0H352L356 144ZM352 502Q339 477 327 453T300 400T267 332T226 243H358Q359 294 359 332T357 399T355 453T352 502ZM333
830L491 712L446 645L272 736L333 830Z" />
<glyph unicode="&#xc1;" glyph-name="Aacute" d="M356 144H180Q165 110 149 74T119 0H-6Q79 186 158 341T312 619H443Q457 501 465 370T476 89V0H352L356 144ZM352 502Q339 477 327 453T300 400T267 332T226 243H358Q359 294 359 332T357 399T355 453T352 502ZM529
736L355 645L310 712L468 830L529 736Z" />
<glyph unicode="&#xc2;" glyph-name="Acircumflex" d="M356 144H180Q165 110 149 74T119 0H-6Q79 186 158 341T312 619H443Q457 501 465 370T476 89V0H352L356 144ZM352 502Q339 477 327 453T300 400T267 332T226 243H358Q359 294 359 332T357 399T355 453T352
502ZM535 695L481 649L407 718L306 649L265 704L425 830L535 695Z" />
<glyph unicode="&#xc3;" glyph-name="Atilde" d="M356 144H180Q165 110 149 74T119 0H-6Q79 186 158 341T312 619H443Q457 501 465 370T476 89V0H352L356 144ZM352 502Q339 477 327 453T300 400T267 332T226 243H358Q359 294 359 332T357 399T355 453T352 502ZM442
681Q425 681 412 686T387 696T365 707T343 712Q330 712 320 705T295 676L235 712Q256 761 284 784T354 808Q370 808 383 803T408 793T431 782T453 777Q466 777 476 784T501 813L561 777Q540 728 512 705T442 681Z" />
<glyph unicode="&#xc4;" glyph-name="Adieresis" d="M356 144H180Q165 110 149 74T119 0H-6Q79 186 158 341T312 619H443Q457 501 465 370T476 89V0H352L356 144ZM352 502Q339 477 327 453T300 400T267 332T226 243H358Q359 294 359 332T357 399T355 453T352 502ZM302
677Q276 677 259 693T242 736Q242 753 248 767T265 791T288 806T314 812Q339 812 357 796T375 752Q375 735 368 722T351 698T327 683T302 677ZM500 677Q474 677 457 693T440 736Q440 770 463 791T513 812Q538 812 555 796T573 752Q573 735 566 722T549 698T525
683T500 677Z" />
<glyph unicode="&#xc5;" glyph-name="Aring" d="M356 144H180Q165 110 149 74T119 0H-6Q78 183 156 337T308 612Q295 625 288 643T280 685Q280 710 288 729T311 762T345 781T384 788Q427 788 458 762T490 685Q490 654 478 633T445 599Q459 467 468 319T476 0H352L356
144ZM352 502Q339 477 327 453T300 400T267 332T226 243H358Q359 294 359 332T357 399T355 453T352 502ZM425 685Q425 706 413 716T384 727Q369 727 357 717T344 685Q344 665 356 654T384 643Q401 643 413 654T425 685Z" />
<glyph unicode="&#xc6;" glyph-name="AE" d="M271 144H172L110 0H-13Q38 106 78 188T156 340T232 477T319 619H605L581 517H469L435 378H524L500 276H411L369 102H495L471 0H237L271 144ZM365 536Q327 469 291 398T217 243H295L365 536Z" />
<glyph unicode="&#xc7;" glyph-name="Ccedilla" d="M300 -25Q322 -36 331 -51T340 -84Q340 -125 306 -147T217 -170Q169 -170 131 -150L157 -92Q168 -98 182 -101T211 -105Q234 -105 241 -96T249 -80Q249 -69 244 -62T223 -49L205 -43L229 -7Q157 10 123 65T88
205Q88 280 108 356T170 494T273 594T420 633Q452 633 477 627T521 614T552 598T569 585L523 490Q503 505 476 515T407 526Q358 526 322 497T261 423T224 324T212 217Q212 190 217 168T235 130T268 104T319 95Q365 95 396 106T447 129L461 30Q438 16 399 3T308
-12L300 -25Z" />
<glyph unicode="&#xc8;" glyph-name="Egrave" d="M53 0L201 619H568L544 517H300L266 378H478L454 276H242L200 102H466L442 0H53ZM346 830L504 712L459 645L285 736L346 830Z" />
<glyph unicode="&#xc9;" glyph-name="Eacute" d="M53 0L201 619H568L544 517H300L266 378H478L454 276H242L200 102H466L442 0H53ZM530 736L356 645L311 712L469 830L530 736Z" />
<glyph unicode="&#xca;" glyph-name="Ecircumflex" d="M53 0L201 619H568L544 517H300L266 378H478L454 276H242L200 102H466L442 0H53ZM541 695L487 649L413 718L312 649L271 704L431 830L541 695Z" />
<glyph unicode="&#xcb;" glyph-name="Edieresis" d="M53 0L201 619H568L544 517H300L266 378H478L454 276H242L200 102H466L442 0H53ZM303 677Q277 677 260 693T243 736Q243 753 249 767T266 791T289 806T315 812Q340 812 358 796T376 752Q376 735 369 722T352
698T328 683T303 677ZM501 677Q475 677 458 693T441 736Q441 770 464 791T514 812Q539 812 556 796T574 752Q574 735 567 722T550 698T526 683T501 677Z" />
<glyph unicode="&#xcc;" glyph-name="Igrave" d="M35 0L59 102H195L295 517H159L183 619H576L552 517H418L318 102H452L428 0H35ZM335 830L493 712L448 645L274 736L335 830Z" />
<glyph unicode="&#xcd;" glyph-name="Iacute" d="M35 0L59 102H195L295 517H159L183 619H576L552 517H418L318 102H452L428 0H35ZM531 736L357 645L312 712L470 830L531 736Z" />
<glyph unicode="&#xce;" glyph-name="Icircumflex" d="M35 0L59 102H195L295 517H159L183 619H576L552 517H418L318 102H452L428 0H35ZM537 695L483 649L409 718L308 649L267 704L427 830L537 695Z" />
<glyph unicode="&#xcf;" glyph-name="Idieresis" d="M35 0L59 102H195L295 517H159L183 619H576L552 517H418L318 102H452L428 0H35ZM304 677Q278 677 261 693T244 736Q244 753 250 767T267 791T290 806T316 812Q341 812 359 796T377 752Q377 735 370 722T353
698T329 683T304 677ZM502 677Q476 677 459 693T442 736Q442 770 465 791T515 812Q540 812 557 796T575 752Q575 735 568 722T551 698T527 683T502 677Z" />
<glyph unicode="&#xd0;" glyph-name="Eth" d="M529 409Q529 329 510 254T450 120T345 27T190 -8Q157 -8 121 -5T50 7L113 270H55L80 372H137L195 611Q233 620 263 623T324 626Q370 626 407 612T472 569T514 501T529 409ZM234 270L193 100Q198 99 204 99T212 99Q266
99 303 128T363 203T396 303T406 405Q406 454 389 486T322 519Q314 519 307 519T293 518L259 372H320L295 270H234Z" />
<glyph unicode="&#xd1;" glyph-name="Ntilde" d="M337 0Q320 103 297 211T241 444L135 0H26L174 619H279Q293 575 308 523T337 418T362 313T381 218L476 619H585L437 0H337ZM446 681Q429 681 416 686T391 696T369 707T347 712Q334 712 324 705T299 676L239 712Q260
761 288 784T358 808Q374 808 387 803T412 793T435 782T457 777Q470 777 480 784T505 813L565 777Q544 728 516 705T446 681Z" />
<glyph unicode="&#xd2;" glyph-name="Ograve" d="M367 633Q448 633 494 581T540 441Q540 402 534 353T514 254T477 155T421 70T344 10T241 -13Q159 -13 113 39T67 179Q67 218 73 267T93 366T130 465T186 550T264 610T367 633ZM255 94Q296 94 326 129T377 215T407
325T417 432Q417 471 404 498T353 526Q312 526 281 491T230 405T200 294T190 188Q190 149 203 122T255 94ZM350 830L508 712L463 645L289 736L350 830Z" />
<glyph unicode="&#xd3;" glyph-name="Oacute" d="M367 633Q448 633 494 581T540 441Q540 402 534 353T514 254T477 155T421 70T344 10T241 -13Q159 -13 113 39T67 179Q67 218 73 267T93 366T130 465T186 550T264 610T367 633ZM255 94Q296 94 326 129T377 215T407
325T417 432Q417 471 404 498T353 526Q312 526 281 491T230 405T200 294T190 188Q190 149 203 122T255 94ZM506 736L332 645L287 712L445 830L506 736Z" />
<glyph unicode="&#xd4;" glyph-name="Ocircumflex" d="M367 633Q448 633 494 581T540 441Q540 402 534 353T514 254T477 155T421 70T344 10T241 -13Q159 -13 113 39T67 179Q67 218 73 267T93 366T130 465T186 550T264 610T367 633ZM255 94Q296 94 326 129T377
215T407 325T417 432Q417 471 404 498T353 526Q312 526 281 491T230 405T200 294T190 188Q190 149 203 122T255 94ZM522 695L468 649L394 718L293 649L252 704L412 830L522 695Z" />
<glyph unicode="&#xd5;" glyph-name="Otilde" d="M367 633Q448 633 494 581T540 441Q540 402 534 353T514 254T477 155T421 70T344 10T241 -13Q159 -13 113 39T67 179Q67 218 73 267T93 366T130 465T186 550T264 610T367 633ZM255 94Q296 94 326 129T377 215T407
325T417 432Q417 471 404 498T353 526Q312 526 281 491T230 405T200 294T190 188Q190 149 203 122T255 94ZM449 681Q432 681 419 686T394 696T372 707T350 712Q337 712 327 705T302 676L242 712Q263 761 291 784T361 808Q377 808 390 803T415 793T438 782T460 777Q473
777 483 784T508 813L568 777Q547 728 519 705T449 681Z" />
<glyph unicode="&#xd6;" glyph-name="Odieresis" d="M367 633Q448 633 494 581T540 441Q540 402 534 353T514 254T477 155T421 70T344 10T241 -13Q159 -13 113 39T67 179Q67 218 73 267T93 366T130 465T186 550T264 610T367 633ZM255 94Q296 94 326 129T377 215T407
325T417 432Q417 471 404 498T353 526Q312 526 281 491T230 405T200 294T190 188Q190 149 203 122T255 94ZM297 677Q271 677 254 693T237 736Q237 753 243 767T260 791T283 806T309 812Q334 812 352 796T370 752Q370 735 363 722T346 698T322 683T297 677ZM495
677Q469 677 452 693T435 736Q435 770 458 791T508 812Q533 812 550 796T568 752Q568 735 561 722T544 698T520 683T495 677Z" />
<glyph unicode="&#xd7;" glyph-name="multiply" d="M75 144L228 267L130 396L216 465L314 337L472 465L531 387L374 259L470 135L382 66L288 190L135 66L75 144Z" />
<glyph unicode="&#xd8;" glyph-name="Oslash" d="M367 633Q416 633 453 613L483 659L555 619L513 555Q526 531 533 503T540 441Q540 402 534 353T514 254T477 155T421 70T344 10T241 -13Q215 -13 193 -8T151 8L119 -40L48 0L93 68Q67 114 67 179Q67 218 73 267T93
366T130 465T186 550T264 610T367 633ZM255 88Q294 88 324 120T377 201T410 307T422 416L213 103Q220 97 231 93T255 88ZM352 530Q314 530 283 499T230 421T197 317T185 207L391 520Q384 525 374 527T352 530Z" />
<glyph unicode="&#xd9;" glyph-name="Ugrave" d="M237 -13Q149 -13 108 29T67 146Q67 187 79 238L171 619H294L203 239Q198 216 194 196T190 158Q190 128 204 111T255 94Q277 94 293 100T321 122T342 164T361 229L455 619H578L482 220Q469 165 453 122T409 49T341
3T237 -13ZM309 830L467 712L422 645L248 736L309 830Z" />
<glyph unicode="&#xda;" glyph-name="Uacute" d="M237 -13Q149 -13 108 29T67 146Q67 187 79 238L171 619H294L203 239Q198 216 194 196T190 158Q190 128 204 111T255 94Q277 94 293 100T321 122T342 164T361 229L455 619H578L482 220Q469 165 453 122T409 49T341
3T237 -13ZM515 736L341 645L296 712L454 830L515 736Z" />
<glyph unicode="&#xdb;" glyph-name="Ucircumflex" d="M237 -13Q149 -13 108 29T67 146Q67 187 79 238L171 619H294L203 239Q198 216 194 196T190 158Q190 128 204 111T255 94Q277 94 293 100T321 122T342 164T361 229L455 619H578L482 220Q469 165 453 122T409
49T341 3T237 -13ZM537 695L483 649L409 718L308 649L267 704L427 830L537 695Z" />
<glyph unicode="&#xdc;" glyph-name="Udieresis" d="M237 -13Q149 -13 108 29T67 146Q67 187 79 238L171 619H294L203 239Q198 216 194 196T190 158Q190 128 204 111T255 94Q277 94 293 100T321 122T342 164T361 229L455 619H578L482 220Q469 165 453 122T409
49T341 3T237 -13ZM304 677Q278 677 261 693T244 736Q244 753 250 767T267 791T290 806T316 812Q341 812 359 796T377 752Q377 735 370 722T353 698T329 683T304 677ZM502 677Q476 677 459 693T442 736Q442 770 465 791T515 812Q540 812 557 796T575 752Q575 735
568 722T551 698T527 683T502 677Z" />
<glyph unicode="&#xdd;" glyph-name="Yacute" d="M311 340Q327 363 350 397T397 470T444 548T486 619H618Q587 568 557 520T494 425T427 332T351 236L294 0H171L227 235Q196 332 176 424T142 619H263Q269 547 282 475T311 340ZM540 736L366 645L321 712L479 830L540 736Z" />
<glyph unicode="&#xde;" glyph-name="Thorn" d="M288 529Q296 530 306 530T324 530Q381 530 420 518T484 483T520 430T531 361Q531 297 508 251T444 174T345 130T217 115H188L161 0H38L187 619H310L288 529ZM309 425Q287 425 263 422L213 221H246Q326 221 367
253T408 343Q408 381 388 403T309 425Z" />
<glyph unicode="&#xdf;" glyph-name="germandbls" d="M140 476Q150 524 167 563T214 632T285 677T387 693Q428 693 457 683T504 657T530 618T538 573Q538 525 517 491T471 430Q446 404 426 383T406 339Q406 316 422 299T457 263T492 218T508 152Q508 78 460 34T324
-11Q277 -11 254 -2T214 16L255 112Q267 104 282 98T320 92Q346 92 366 105T387 146Q387 171 372 189T340 226T307 265T292 316Q292 357 314 387T363 447Q383 469 400 492T418 547Q418 567 404 577T364 588Q326 588 300 559T263 479L171 26Q152 -68 102 -118T-32
-168Q-58 -168 -80 -163T-122 -148L-88 -44Q-75 -49 -62 -52T-34 -56Q-15 -56 -2 -49T21 -31T37 -4T47 30L140 476Z" />
<glyph unicode="&#xe0;" glyph-name="agrave" d="M251 94Q279 94 298 106T331 136Q333 150 335 163T341 193L384 371Q373 374 361 375T338 376Q303 376 275 360T227 316T197 254T186 182Q186 156 190 139T203 112T224 98T251 94ZM206 -11Q140 -10 102 36T64 172Q64
240 87 297T150 394T243 457T357 480Q398 480 440 472T525 447L463 192Q459 174 457 157T455 121Q455 92 460 65T475 10L367 -8Q365 -4 362 2T356 15T351 27T348 36Q328 21 294 5T206 -11ZM328 691L486 573L441 506L267 597L328 691Z" />
<glyph unicode="&#xe1;" glyph-name="aacute" d="M251 94Q279 94 298 106T331 136Q333 150 335 163T341 193L384 371Q373 374 361 375T338 376Q303 376 275 360T227 316T197 254T186 182Q186 156 190 139T203 112T224 98T251 94ZM206 -11Q140 -10 102 36T64 172Q64
240 87 297T150 394T243 457T357 480Q398 480 440 472T525 447L463 192Q459 174 457 157T455 121Q455 92 460 65T475 10L367 -8Q365 -4 362 2T356 15T351 27T348 36Q328 21 294 5T206 -11ZM524 597L350 506L305 573L463 691L524 597Z" />
<glyph unicode="&#xe2;" glyph-name="acircumflex" d="M251 94Q279 94 298 106T331 136Q333 150 335 163T341 193L384 371Q373 374 361 375T338 376Q303 376 275 360T227 316T197 254T186 182Q186 156 190 139T203 112T224 98T251 94ZM206 -11Q140 -10 102 36T64
172Q64 240 87 297T150 394T243 457T357 480Q398 480 440 472T525 447L463 192Q459 174 457 157T455 121Q455 92 460 65T475 10L367 -8Q365 -4 362 2T356 15T351 27T348 36Q328 21 294 5T206 -11ZM520 556L466 510L392 579L291 510L250 565L410 691L520 556Z" />
<glyph unicode="&#xe3;" glyph-name="atilde" d="M251 94Q279 94 298 106T331 136Q333 150 335 163T341 193L384 371Q373 374 361 375T338 376Q303 376 275 360T227 316T197 254T186 182Q186 156 190 139T203 112T224 98T251 94ZM206 -11Q140 -10 102 36T64 172Q64
240 87 297T150 394T243 457T357 480Q398 480 440 472T525 447L463 192Q459 174 457 157T455 121Q455 92 460 65T475 10L367 -8Q365 -4 362 2T356 15T351 27T348 36Q328 21 294 5T206 -11ZM437 542Q420 542 407 547T382 557T360 568T338 573Q325 573 315 566T290
537L230 573Q251 622 279 645T349 669Q365 669 378 664T403 654T426 643T448 638Q461 638 471 645T496 674L556 638Q535 589 507 566T437 542Z" />
<glyph unicode="&#xe4;" glyph-name="adieresis" d="M251 94Q279 94 298 106T331 136Q333 150 335 163T341 193L384 371Q373 374 361 375T338 376Q303 376 275 360T227 316T197 254T186 182Q186 156 190 139T203 112T224 98T251 94ZM206 -11Q140 -10 102 36T64
172Q64 240 87 297T150 394T243 457T357 480Q398 480 440 472T525 447L463 192Q459 174 457 157T455 121Q455 92 460 65T475 10L367 -8Q365 -4 362 2T356 15T351 27T348 36Q328 21 294 5T206 -11ZM297 538Q271 538 254 554T237 597Q237 614 243 628T260 652T283
667T309 673Q334 673 352 657T370 613Q370 596 363 583T346 559T322 544T297 538ZM495 538Q469 538 452 554T435 597Q435 631 458 652T508 673Q533 673 550 657T568 613Q568 596 561 583T544 559T520 544T495 538Z" />
<glyph unicode="&#xe5;" glyph-name="aring" d="M251 94Q279 94 298 106T331 136Q333 150 335 163T341 193L384 371Q373 374 361 375T338 376Q303 376 275 360T227 316T197 254T186 182Q186 156 190 139T203 112T224 98T251 94ZM206 -11Q140 -10 102 36T64 172Q64
240 87 297T150 394T243 457T357 480Q398 480 440 472T525 447L463 192Q459 174 457 157T455 121Q455 92 460 65T475 10L367 -8Q365 -4 362 2T356 15T351 27T348 36Q328 21 294 5T206 -11ZM509 624Q509 574 478 548T403 522Q383 522 364 528T331 548T308 580T299
624Q299 649 307 668T330 701T364 720T403 727Q446 727 477 701T509 624ZM444 624Q444 645 432 655T403 666Q388 666 376 656T363 624Q363 604 375 593T403 582Q420 582 432 593T444 624Z" />
<glyph unicode="&#xe6;" glyph-name="ae" d="M457 359Q457 373 451 383T427 393Q417 393 405 385T380 360T356 316T336 250Q362 250 384 258T423 281T448 316T457 359ZM147 77Q157 77 169 85T194 110T218 154T238 220Q212 220 190 212T151 188T126 153T117 111Q117
97 123 87T147 77ZM30 93Q30 143 47 180T94 243T162 283T245 301Q246 305 246 308T246 315Q246 351 231 371T176 391Q159 391 141 384T106 365L94 453Q115 467 141 474T196 482Q241 482 274 459T318 388Q342 435 376 458T448 482Q466 482 483 477T514 459T536 426T544
377Q544 327 527 290T481 227T412 187T330 169Q329 164 329 161T329 154Q329 119 344 99T398 79Q434 79 468 104L480 17Q459 3 433 -5T379 -13Q333 -13 300 10T256 82Q232 35 198 11T126 -13Q108 -13 91 -8T60 10T38 43T30 93Z" />
<glyph unicode="&#xe7;" glyph-name="ccedilla" d="M311 -25Q333 -36 342 -51T351 -84Q351 -125 317 -147T228 -170Q180 -170 142 -150L168 -92Q179 -98 193 -101T222 -105Q245 -105 252 -96T260 -80Q260 -69 255 -62T234 -49L216 -43Q223 -32 228 -24T240 -7Q194
-1 163 16T113 58T86 115T77 182Q77 247 100 302T164 396T263 458T389 481Q416 481 436 479T474 474T504 466T531 455L487 357Q471 364 446 369T389 375Q348 375 314 363T255 326T215 267T201 187Q201 167 206 151T224 122T261 103T321 96Q360 96 393 103T444 119L456
21Q445 15 433 10T405 1T369 -6T320 -10L311 -25Z" />
<glyph unicode="&#xe8;" glyph-name="egrave" d="M196 167Q196 149 202 135T221 110T257 95T314 89Q354 89 390 97T443 114L451 21Q427 9 384 -1T290 -12Q233 -12 192 2T125 43T87 104T75 183Q75 241 94 295T151 391T242 457T365 482Q434 482 478 448T522 353Q522
302 497 267T428 209T325 177T196 167ZM342 384Q296 384 255 353T197 252Q260 252 300 260T364 280T396 308T405 336Q405 359 389 371T342 384ZM317 691L475 573L430 506L256 597L317 691Z" />
<glyph unicode="&#xe9;" glyph-name="eacute" d="M196 167Q196 149 202 135T221 110T257 95T314 89Q354 89 390 97T443 114L451 21Q427 9 384 -1T290 -12Q233 -12 192 2T125 43T87 104T75 183Q75 241 94 295T151 391T242 457T365 482Q434 482 478 448T522 353Q522
302 497 267T428 209T325 177T196 167ZM342 384Q296 384 255 353T197 252Q260 252 300 260T364 280T396 308T405 336Q405 359 389 371T342 384ZM505 597L331 506L286 573L444 691L505 597Z" />
<glyph unicode="&#xea;" glyph-name="ecircumflex" d="M196 167Q196 149 202 135T221 110T257 95T314 89Q354 89 390 97T443 114L451 21Q427 9 384 -1T290 -12Q233 -12 192 2T125 43T87 104T75 183Q75 241 94 295T151 391T242 457T365 482Q434 482 478 448T522
353Q522 302 497 267T428 209T325 177T196 167ZM342 384Q296 384 255 353T197 252Q260 252 300 260T364 280T396 308T405 336Q405 359 389 371T342 384ZM511 556L457 510L383 579L282 510L241 565L401 691L511 556Z" />
<glyph unicode="&#xeb;" glyph-name="edieresis" d="M196 167Q196 149 202 135T221 110T257 95T314 89Q354 89 390 97T443 114L451 21Q427 9 384 -1T290 -12Q233 -12 192 2T125 43T87 104T75 183Q75 241 94 295T151 391T242 457T365 482Q434 482 478 448T522 353Q522
302 497 267T428 209T325 177T196 167ZM342 384Q296 384 255 353T197 252Q260 252 300 260T364 280T396 308T405 336Q405 359 389 371T342 384ZM269 538Q243 538 226 554T209 597Q209 614 215 628T232 652T255 667T281 673Q306 673 324 657T342 613Q342 596 335
583T318 559T294 544T269 538ZM467 538Q441 538 424 554T407 597Q407 631 430 652T480 673Q505 673 522 657T540 613Q540 596 533 583T516 559T492 544T467 538Z" />
<glyph unicode="&#xec;" glyph-name="igrave" d="M459 13Q422 -1 390 -6T329 -11Q258 -11 224 23T190 121Q190 154 201 198L241 368H111L136 470H389L321 183Q315 162 315 146Q315 96 366 96Q383 96 406 99T457 113L459 13ZM521 691L679 573L634 506L460 597L521 691Z" />
<glyph unicode="&#xed;" glyph-name="iacute" d="M459 13Q422 -1 390 -6T329 -11Q258 -11 224 23T190 121Q190 154 201 198L241 368H111L136 470H389L321 183Q315 162 315 146Q315 96 366 96Q383 96 406 99T457 113L459 13ZM717 597L543 506L498 573L656 691L717 597Z" />
<glyph unicode="&#xee;" glyph-name="icircumflex" d="M459 13Q422 -1 390 -6T329 -11Q258 -11 224 23T190 121Q190 154 201 198L241 368H111L136 470H389L321 183Q315 162 315 146Q315 96 366 96Q383 96 406 99T457 113L459 13ZM723 556L669 510L595 579L494
510L453 565L613 691L723 556Z" />
<glyph unicode="&#xef;" glyph-name="idieresis" d="M459 13Q422 -1 390 -6T329 -11Q258 -11 224 23T190 121Q190 154 201 198L241 368H111L136 470H389L321 183Q315 162 315 146Q315 96 366 96Q383 96 406 99T457 113L459 13ZM490 538Q464 538 447 554T430 597Q430
614 436 628T453 652T476 667T502 673Q527 673 545 657T563 613Q563 596 556 583T539 559T515 544T490 538ZM688 538Q662 538 645 554T628 597Q628 631 651 652T701 673Q726 673 743 657T761 613Q761 596 754 583T737 559T713 544T688 538Z" />
<glyph unicode="&#xf0;" glyph-name="eth" d="M488 534Q505 463 505 391Q505 351 500 308T484 223T454 142T407 70Q375 32 330 10T224 -13Q182 -13 152 1T102 38T73 92T63 156Q63 207 78 255T124 340T200 399T304 421Q331 421 354 414T394 395Q394 418 392 448T381
501L280 470L271 544L350 569Q341 585 324 604T289 635L371 693Q397 675 421 652T461 603L572 638L586 564L488 534ZM373 294Q359 311 339 317T298 323Q269 323 248 309T212 271T191 220T183 166Q183 136 195 115T236 94Q270 94 294 115T333 166T358 231T373 294Z"
/>
<glyph unicode="&#xf1;" glyph-name="ntilde" d="M152 450Q183 460 233 470T340 480Q424 480 460 444T497 344Q497 327 495 307T487 265L422 0H299L360 249Q363 265 367 282T371 316Q371 339 359 356T313 374Q299 374 284 372T255 363L167 0H44L152 450ZM408 542Q391
542 378 547T353 557T331 568T309 573Q296 573 286 566T261 537L201 573Q222 622 250 645T320 669Q336 669 349 664T374 654T397 643T419 638Q432 638 442 645T467 674L527 638Q506 589 478 566T408 542Z" />
<glyph unicode="&#xf2;" glyph-name="ograve" d="M256 94Q286 94 309 112T348 157T373 215T382 275Q382 322 369 349T313 376Q284 376 261 358T221 313T197 255T188 195Q188 148 201 121T256 94ZM231 -13Q147 -13 106 35T65 163Q65 223 83 280T136 382T223 454T343
482Q416 482 460 438T505 305Q505 246 488 189T437 87T351 15T231 -13ZM299 691L457 573L412 506L238 597L299 691Z" />
<glyph unicode="&#xf3;" glyph-name="oacute" d="M256 94Q286 94 309 112T348 157T373 215T382 275Q382 322 369 349T313 376Q284 376 261 358T221 313T197 255T188 195Q188 148 201 121T256 94ZM231 -13Q147 -13 106 35T65 163Q65 223 83 280T136 382T223 454T343
482Q416 482 460 438T505 305Q505 246 488 189T437 87T351 15T231 -13ZM741 597L567 506L522 573L680 691L741 597Z" />
<glyph unicode="&#xf4;" glyph-name="ocircumflex" d="M256 94Q286 94 309 112T348 157T373 215T382 275Q382 322 369 349T313 376Q284 376 261 358T221 313T197 255T188 195Q188 148 201 121T256 94ZM231 -13Q147 -13 106 35T65 163Q65 223 83 280T136 382T223
454T343 482Q416 482 460 438T505 305Q505 246 488 189T437 87T351 15T231 -13ZM501 556L447 510L373 579L272 510L231 565L391 691L501 556Z" />
<glyph unicode="&#xf5;" glyph-name="otilde" d="M256 94Q286 94 309 112T348 157T373 215T382 275Q382 322 369 349T313 376Q284 376 261 358T221 313T197 255T188 195Q188 148 201 121T256 94ZM231 -13Q147 -13 106 35T65 163Q65 223 83 280T136 382T223 454T343
482Q416 482 460 438T505 305Q505 246 488 189T437 87T351 15T231 -13ZM408 542Q391 542 378 547T353 557T331 568T309 573Q296 573 286 566T261 537L201 573Q222 622 250 645T320 669Q336 669 349 664T374 654T397 643T419 638Q432 638 442 645T467 674L527 638Q506
589 478 566T408 542Z" />
<glyph unicode="&#xf6;" glyph-name="odieresis" d="M256 94Q286 94 309 112T348 157T373 215T382 275Q382 322 369 349T313 376Q284 376 261 358T221 313T197 255T188 195Q188 148 201 121T256 94ZM231 -13Q147 -13 106 35T65 163Q65 223 83 280T136 382T223
454T343 482Q416 482 460 438T505 305Q505 246 488 189T437 87T351 15T231 -13ZM268 538Q242 538 225 554T208 597Q208 614 214 628T231 652T254 667T280 673Q305 673 323 657T341 613Q341 596 334 583T317 559T293 544T268 538ZM466 538Q440 538 423 554T406 597Q406
631 429 652T479 673Q504 673 521 657T539 613Q539 596 532 583T515 559T491 544T466 538Z" />
<glyph unicode="&#xf7;" glyph-name="divide" d="M353 518Q381 518 399 503T418 454Q418 415 394 393T337 371Q308 371 290 386T272 435Q272 474 296 496T353 518ZM105 313H525L501 212H81L105 313ZM263 154Q291 154 309 139T328 90Q328 51 304 29T247 7Q218 7
200 22T182 71Q182 110 206 132T263 154Z" />
<glyph unicode="&#xf8;" glyph-name="oslash" d="M238 100Q248 94 258 92T280 90Q314 90 339 108T380 154T403 219T411 293L238 100ZM264 -13Q247 -13 235 -13T213 -10T193 -5T171 5L128 -45L70 3L116 55Q97 87 93 116T89 175Q89 236 109 291T166 389T251 457T357
482Q380 482 402 479T450 464L491 512L549 464L504 413Q518 388 523 360T529 296Q529 243 512 188T462 89T379 16T264 -13ZM380 371Q364 381 341 381Q306 381 281 363T239 315T214 250T206 179L380 371Z" />
<glyph unicode="&#xf9;" glyph-name="ugrave" d="M221 -11Q140 -11 108 27T76 131Q76 177 90 238L146 470H269L216 246Q208 216 204 192T200 148Q200 96 250 96Q278 96 294 107T326 136Q328 150 329 163T336 193L402 470H525L458 192Q454 174 452 157T449 121Q449
92 455 65T470 10L362 -8Q360 -4 357 2T351 15T346 27T343 36Q323 21 291 5T221 -11ZM539 691L697 573L652 506L478 597L539 691Z" />
<glyph unicode="&#xfa;" glyph-name="uacute" d="M221 -11Q140 -11 108 27T76 131Q76 177 90 238L146 470H269L216 246Q208 216 204 192T200 148Q200 96 250 96Q278 96 294 107T326 136Q328 150 329 163T336 193L402 470H525L458 192Q454 174 452 157T449 121Q449
92 455 65T470 10L362 -8Q360 -4 357 2T351 15T346 27T343 36Q323 21 291 5T221 -11ZM735 597L561 506L516 573L674 691L735 597Z" />
<glyph unicode="&#xfb;" glyph-name="ucircumflex" d="M221 -11Q140 -11 108 27T76 131Q76 177 90 238L146 470H269L216 246Q208 216 204 192T200 148Q200 96 250 96Q278 96 294 107T326 136Q328 150 329 163T336 193L402 470H525L458 192Q454 174 452 157T449
121Q449 92 455 65T470 10L362 -8Q360 -4 357 2T351 15T346 27T343 36Q323 21 291 5T221 -11ZM750 556L696 510L622 579L521 510L480 565L640 691L750 556Z" />
<glyph unicode="&#xfc;" glyph-name="udieresis" d="M221 -11Q140 -11 108 27T76 131Q76 177 90 238L146 470H269L216 246Q208 216 204 192T200 148Q200 96 250 96Q278 96 294 107T326 136Q328 150 329 163T336 193L402 470H525L458 192Q454 174 452 157T449 121Q449
92 455 65T470 10L362 -8Q360 -4 357 2T351 15T346 27T343 36Q323 21 291 5T221 -11ZM508 538Q482 538 465 554T448 597Q448 614 454 628T471 652T494 667T520 673Q545 673 563 657T581 613Q581 596 574 583T557 559T533 544T508 538ZM706 538Q680 538 663 554T646
597Q646 631 669 652T719 673Q744 673 761 657T779 613Q779 596 772 583T755 559T731 544T706 538Z" />
<glyph unicode="&#xfd;" glyph-name="yacute" d="M549 470Q523 401 498 342T447 230T391 129T329 33Q304 -3 276 -38T214 -103T140 -150T53 -168Q-9 -168 -43 -147L-4 -49Q12 -56 26 -59T62 -63Q135 -63 183 9Q159 105 140 217T113 470H241Q242 434 244 391T251
304T260 217T273 139Q319 209 354 290T418 470H549ZM734 597L560 506L515 573L673 691L734 597Z" />
<glyph unicode="&#xfe;" glyph-name="thorn" d="M185 98Q190 96 196 96T209 96Q250 96 283 112T338 157T373 222T385 301Q385 316 382 329T371 353T348 370T309 377Q289 377 275 374T250 369L185 98ZM344 480Q425 480 465 433T506 310Q506 248 488 190T434 88T341
17T210 -10Q190 -10 179 -9T160 -6L121 -165H-2L200 673L328 694L273 468Q290 473 308 476T344 480Z" />
<glyph unicode="&#xff;" glyph-name="ydieresis" d="M549 470Q523 401 498 342T447 230T391 129T329 33Q304 -3 276 -38T214 -103T140 -150T53 -168Q-9 -168 -43 -147L-4 -49Q12 -56 26 -59T62 -63Q135 -63 183 9Q159 105 140 217T113 470H241Q242 434 244 391T251
304T260 217T273 139Q319 209 354 290T418 470H549ZM507 538Q481 538 464 554T447 597Q447 614 453 628T470 652T493 667T519 673Q544 673 562 657T580 613Q580 596 573 583T556 559T532 544T507 538ZM705 538Q679 538 662 554T645 597Q645 631 668 652T718 673Q743
673 760 657T778 613Q778 596 771 583T754 559T730 544T705 538Z" />
<glyph unicode="&#x2013;" glyph-name="endash" d="M111 313H504L481 221H88L111 313Z" />
<glyph unicode="&#x2014;" glyph-name="emdash" d="M56 313H556L534 221H34L56 313Z" />
<glyph unicode="&#x2018;" glyph-name="quoteleft" d="M504 656Q483 655 462 651T422 638T390 618T371 592Q401 588 419 569T437 517Q437 496 430 478T409 446T377 425T338 417Q299 417 280 444T261 513Q261 550 275 588T318 657T391 709T496 735L504 656Z" />
<glyph unicode="&#x2019;" glyph-name="quoteright" d="M237 496Q258 497 279 501T318 514T350 534T369 560Q340 564 322 583T304 635Q304 678 332 706T402 735Q442 735 461 708T480 638Q480 601 466 564T423 495T350 443T245 417L237 496Z" />
<glyph unicode="&#x201a;" glyph-name="quotesinglbase" d="M96 -72Q117 -71 138 -67T177 -54T209 -34T228 -8Q198 -4 181 15T163 67Q163 110 191 138T261 167Q300 167 319 144T339 88Q339 44 325 3T282 -71T209 -125T104 -151L96 -72Z" />
<glyph unicode="&#x201c;" glyph-name="quotedblleft" d="M370 627Q352 625 334 621T300 611T273 594T257 572Q283 569 298 551T314 506Q314 469 290 444T229 419Q194 419 178 443T161 505Q161 538 173 570T209 629T272 672T363 693L370 627ZM603 627Q585 625
567 621T534 611T507 594T491 572Q517 569 532 551T547 506Q547 469 523 444T462 419Q427 419 411 443T395 505Q395 538 406 570T443 629T505 672T596 693L603 627Z" />
<glyph unicode="&#x201d;" glyph-name="quotedblright" d="M366 485Q384 486 402 490T436 500T463 517T479 539Q453 543 437 561T421 605Q421 643 446 668T507 693Q542 693 558 668T575 607Q575 574 563 542T527 483T464 440T373 419L366 485ZM133 485Q151 486
169 490T202 500T229 517T245 539Q219 543 204 561T188 605Q188 643 213 668T274 693Q309 693 325 668T341 607Q341 574 330 542T293 483T230 440T140 419L133 485Z" />
<glyph unicode="&#x201e;" glyph-name="quotedblbase" d="M240 -77Q258 -76 276 -72T310 -61T337 -44T353 -22Q327 -19 312 -1T296 44Q296 81 320 106T381 131Q416 131 432 107T449 46Q449 12 437 -20T401 -78T338 -122T247 -143L240 -77ZM7 -77Q25 -76 43 -72T76
-61T103 -44T119 -22Q93 -19 78 -1T63 44Q63 81 87 106T148 131Q183 131 199 107T215 46Q215 12 204 -20T167 -78T104 -122T14 -143L7 -77Z" />
<glyph unicode="&#x2022;" glyph-name="bullet" d="M446 314Q446 285 437 260T410 214T367 183T310 171Q278 171 253 182T211 214T184 259T174 314Q174 342 183 368T210 414T253 445T310 457Q341 457 366 446T409 414T436 368T446 314Z" />
<glyph unicode="&#x2039;" glyph-name="guilsinglleft" d="M305 242L369 80L280 39L165 259L361 468L445 418L305 242Z" />
<glyph unicode="&#x203a;" glyph-name="guilsinglright" d="M271 265L207 427L296 468L411 248L215 39L131 89L271 265Z" />
</font>
</defs>
</svg>
